Skip to main content

Camper Van Beethoven Live at Mississippi Nights on 1989-10-12




intro, Flowers, O Death, Sweethearts, Tania, Chris station ID, Eye Of Fatima, When I Win The Lottery, KDHX ID, Joe Stalin's Cadillac, (I Was So) Wasted, Take The Skinheads Bowling, One Of These Days, Morgan station ID, Turquoise Jewelry, SP37957 Medley, Before I Met You, David station ID, Opening Theme, All Her Favorite Fruit, Good Guys & Bad Guys, Seven Languages, KDHX ID, Waka, Pictures Of Matchstick Men, She Divines Water, David station ID, ZZ Top Goes To Egypt, Sweet Virginia, Loser, Act Naturally, KDHX ID


Collection CamperVanBeethoven
Band/Artist Camper Van Beethoven
Date October 12, 1989
Venue Mississippi Nights
Location St. Louis, MO

Source KDHX-FM 88.1 MHz
Lineage FM > CAS > CAS > CAS > FLAC
Taped by Greg Ryan
Transferred by morst


Notes

KDHX-FM 88.1MHz > Cassette (mono) > Cassette > Cassette > Protools 4.1.1 > FLAC from FM broadcast on 12-31-1989

"Recorded to cassette on a boom box, (make unknown - maybe some cheap GPX?) on New Year's Eve, 1989 from a KDHX broadcast. It was taped by Greg Ryan."


disc 1
Steve Pick intro 0:30
Flowers 3:18
O Death 3:29
Sweethearts 4:33
Tania 3:48
Chris station ID 0:12
Eye Of Fatima 4:51
When I Win The Lottery 3:57
KDHX ID 0:04
Joe Stalin's Cadillac 2:32
(I Was So) Wasted 1:34
Take The Skinheads Bowling 2:39
One Of These Days 3:22
Morgan station ID 0:06
Turquoise Jewelry 3:11
SP37957 Medley 8:34

disc 2
Before I Met You 3:07
David station ID 0:10
Opening Theme 2:22
All Her Favorite Fruit 5:25
Good Guys & Bad Guys 4:22
Seven Languages 4:01
KDHX ID 0:04
Waka 2:37
Pictures Of Matchstick Men 4:03
Life Is Grand 3:59
David station ID 0:07
ZZ Top Goes To Egypt 3:57
Sweet Virginia 4:08
Loser 3:56
Act Naturally 3:14
KDHX ID 0:05


length expanded size cdr WAVE problems filename
0:30.18 5334380 --- -- ---xx cvb1989-10-12d1t01.flac
3:18.39 35018972 --- -- ---xx cvb1989-10-12d1t02.flac
3:29.28 36933500 --- -- ---xx cvb1989-10-12d1t03.flac
4:33.43 48258380 --- -- ---xx cvb1989-10-12d1t04.flac
3:48.70 40383884 --- -- ---xx cvb1989-10-12d1t05.flac
0:12.48 2229740 --- -- ---xx cvb1989-10-12d1t06.flac
4:51.15 51367724 --- -- ---xx cvb1989-10-12d1t07.flac
3:57.47 41917388 --- -- ---xx cvb1989-10-12d1t08.flac
0:02.69 515132 --s -- ---xx cvb1989-10-12d1t09.flac
2:32.01 26815196 --- -- ---xx cvb1989-10-12d1t10.flac
1:34.21 16631036 --- -- ---xx cvb1989-10-12d1t11.flac
2:39.47 28158188 --- -- ---xx cvb1989-10-12d1t12.flac
3:22.30 35703404 --- -- ---xx cvb1989-10-12d1t13.flac
0:06.66 1213676 --- -- ---xx cvb1989-10-12d1t14.flac
3:11.05 33704204 --- -- ---xx cvb1989-10-12d1t15.flac
8:34.39 90761880 -b- -- ---xx cvb1989-10-12d1t16.flac
3:07.58 33123260 --- -- ---xx cvb1989-10-12d2t01.flac
0:10.12 1792268 --- -- ---xx cvb1989-10-12d2t02.flac
2:22.28 25114700 --- -- ---xx cvb1989-10-12d2t03.flac
5:25.25 57388844 --- -- ---xx cvb1989-10-12d2t04.flac
4:22.70 46381484 --- -- ---xx cvb1989-10-12d2t05.flac
4:01.26 42573596 --- -- ---xx cvb1989-10-12d2t06.flac
0:04.24 762092 --- -- ---xx cvb1989-10-12d2t07.flac
2:37.41 27791276 --- -- ---xx cvb1989-10-12d2t08.flac
4:03.07 42881708 --- -- ---xx cvb1989-10-12d2t09.flac
3:59.12 42187868 --- -- ---xx cvb1989-10-12d2t10.flac
0:07.53 1359500 --- -- ---xx cvb1989-10-12d2t11.flac
3:57.14 41839772 --- -- ---xx cvb1989-10-12d2t12.flac
4:08.22 43798988 --- -- ---xx cvb1989-10-12d2t13.flac
3:56.71 41797436 --- -- ---xx cvb1989-10-12d2t14.flac
3:14.50 34339244 --- -- ---xx cvb1989-10-12d2t15.flac
0:05.34 962012 --- -- ---xx cvb1989-10-12d2t16.flac
92:30.08 979040732 B (totals for 32 files, 0.5630 overall compression ratio)

Reviews

Reviewer: morst - - January 26, 2008
Subject: Five star PLUS performance, one star off for mono boom box recording
I would give this 4.5 stars if I could! I have to admit it's not perfect 5-star quality, since it was taped off the air on a less-than-stellar boombox. It was my first of what is now many CVB shows that I attended, and was truly a great experience. I am so glad that I am able to share it via Archive.org, and that people seem to be listening to one of my favorite bands ever! THE GREAT CVB!!!

****!!!!

ps thanks owen- I CARE, so I changed it! ;-)
Reviewer: owenpotemkin - - January 25, 2008
Subject: song name correction
What a magical show. I just wanted to point out that the track listed as "Life is Grand", is actually their song "She Divines Water", in case anyone cares.
Reviewer: SpencerMarquart - - August 15, 2007
Subject: A long lost treasure!!
Thanks so much for posting this show! I was there and it remains one of the best shows ever. I also had a tape of the KDHX re-broadcast and made several copies. But they slipped through the cracks somehow through the years. Yes, the quality is a little lo-fi - but it's still better than most bootleg recordings - because they completely tore the place down! I'd seen CVB a few times, but this show and tour really was special.
Thanks again!!
Spencer
Reviewer: mick dillingham - - November 24, 2005
Subject: camper vantiquity of much value
a blistering set from the short lived key lime pie lineup, with Morgan Fitcher (ex Harm Farm (a truely brilliant camperish combo themselves)and later of 10,000 Maniacs) on violin (she's no Jonathan Segel..bot then again who is?) and the MIGHTY David Immergluck (Counting Crows, Monks Of Doom) on guitars, peddle steel and mandolin. Despite being mono and lacking a certain high end sparkle, this is still a magnificent find.with great playing and a clutch of rare tracks, Before I Met You,Sweet Virginia, Loser and even Act Naturally!?! (for cryin' out loud) A wonderful download and I suggest you use Jonathan Segel's beautiful but short Pappy and Harriet set from this year as filler. Talking of Harm Farm, anyone out there know if a good live tape of that legendary San Francisco band exists?
DOWNLOAD OPTIONS
Uploaded by
morst
on 11/16/2005
Views
56,490
Favorites
5
Reviews
4
PEOPLE ALSO FOUND
Camper Van Beethoven
by Camper Van Beethoven
407
0
0
Camper Van Beethoven
by Camper Van Beethoven
141
0
0
Source: soundboard > Sony D5 > TDK MA90 cassette master tape
Camper Van Beethoven
by Camper Van Beethoven
335
0
0
Source: audience > Sony WM-D6c > MCAS
Camper Van Beethoven
by Camper Van Beethoven
2,659
0
1
( 1 reviews )
Source: Sony ECM-717 > Sharp Minidisc MD-MT190
Camper Van Beethoven
by Camper Van Beethoven
9,935
0
1
( 1 reviews )
Source: Sony ECM-717 > Sharp MD-MT190MD
Camper Van Beethoven
by Camper Van Beethoven
1,682
1
0
Source: AKG C480b (CK63) > Edirol UA-5 (BM2) > Nomad Jukebox 3
Camper Van Beethoven
by Camper Van Beethoven
3,441
2
2
( 2 reviews )
Source: Nakamichi 300 CP-1 (cardioid pair) > Sony TCD-D8 > DAT
Camper Van Beethoven
by Camper Van Beethoven
75
1
0
Source: PCM-M10 internal mics > WAV @24/48
Camper Van Beethoven
by Camper Van Beethoven
3,241
1
0
Camper Van Beethoven
by Camper Van Beethoven
3,635
1
0
Source: DAUD